+ ShareSpark.net »  :::: Bollywood Zone » Indian TV Shows
|- Mirzapur S01 1080p Multi AMZN WEB-DL H264 DDP 5.1 - NbT


100% Recharge Offer
  • Mirzapur S01 1080p Multi AMZN WEB-DL H264 DDP 5.1 - NbT 5 1
Currently:  

Mirzapur S01 1080p Multi AMZN WEB-DL H264 DDP 5.1 - NbT

0 Members and 1 Guest are viewing this topic.

November 16, 2018, 04:04:19 PM
  • Global Moderator
  • Legend Member
  • *****
  • Topic Author
  • Thank You: 11840
  • Reputation: 2401
  • Activity:
    100%
  • Country: in
  • Posts: 5637
  • Topics: 4622
  • Join Date: Jan 2014
  • ıllıllı ѕмoĸιng ιѕ good ғor нealтн ıllıllı :)
Mirzapur S01 1080p Multi AMZN WEB-DL H264 DDP 5.1 - NbT

Quote
Format                      : Matroska
Format version              : Version 4
File size                   : 3.19 GiB
Duration                    : 53 min 16 s
Overall bit rate mode       : Variable
Overall bit rate            : 8 568 kb/s
Encoded date                : UTC 2018-11-15 16:47:14
Writing application         : mkvmerge v25.0.0 ('Prog Noir') 32-bit
Writing library             : libebml v1.3.6 + libmatroska v1.4.9

Video
ID                          : 1
Format                      : AVC
Format/Info                 : Advanced Video Codec
Format profile              : [email protected]
Format settings             : CABAC / 4 Ref Frames
Format settings, CABAC      : Yes
Format settings, ReFrames   : 4 frames
Codec ID                    : V_MPEG4/ISO/AVC
Duration                    : 53 min 16 s
Bit rate mode               : Variable
Bit rate                    : 6 644 kb/s
Maximum bit rate            : 15.0 Mb/s
Width                       : 1 920 pixels
Height                      : 1 080 pixels
Display aspect ratio        : 16:9
Frame rate mode             : Constant
Frame rate                  : 25.000 FPS
Color space                 : YUV
Chroma subsampling          : 4:2:0
Bit depth                   : 8 bits
Scan type                   : Progressive
Bits/(Pixel*Frame)          : 0.128
Stream size                 : 2.47 GiB (78%)
Default                     : Yes
Forced                      : No
Color range                 : Limited
Color primaries             : BT.709
Transfer characteristics    : BT.709
Matrix coefficients         : BT.709

Audio #1
ID                          : 2
Format                      : E-AC-3
Format/Info                 : Enhanced AC-3
Commercial name             : Dolby Digital Plus
Codec ID                    : A_EAC3
Duration                    : 53 min 16 s
Bit rate mode               : Constant
Bit rate                    : 640 kb/s
Channel(s)                  : 6 channels
Channel layout              : L R C LFE Ls Rs
Sampling rate               : 48.0 kHz
Frame rate                  : 31.250 FPS (1536 SPF)
Compression mode            : Lossy
Stream size                 : 244 MiB (7%)
Title                       : Hindi
Language                    : Hindi
Service kind                : Complete Main
Default                     : No
Forced                      : No

Audio #2
ID                          : 3
Format                      : E-AC-3
Format/Info                 : Enhanced AC-3
Commercial name             : Dolby Digital Plus
Codec ID                    : A_EAC3
Duration                    : 53 min 16 s
Bit rate mode               : Constant
Bit rate                    : 640 kb/s
Channel(s)                  : 6 channels
Channel layout              : L R C LFE Ls Rs
Sampling rate               : 48.0 kHz
Frame rate                  : 31.250 FPS (1536 SPF)
Compression mode            : Lossy
Stream size                 : 244 MiB (7%)
Title                       : Tamil
Language                    : Tamil
Service kind                : Complete Main
Default                     : No
Forced                      : No

Audio #3
ID                          : 4
Format                      : E-AC-3
Format/Info                 : Enhanced AC-3
Commercial name             : Dolby Digital Plus
Codec ID                    : A_EAC3
Duration                    : 53 min 16 s
Bit rate mode               : Constant
Bit rate                    : 640 kb/s
Channel(s)                  : 6 channels
Channel layout              : L R C LFE Ls Rs
Sampling rate               : 48.0 kHz
Frame rate                  : 31.250 FPS (1536 SPF)
Compression mode            : Lossy
Stream size                 : 244 MiB (7%)
Title                       : Telugu
Language                    : Telugu
Service kind                : Complete Main
Default                     : No
Forced                      : No

Text #1
ID                          : 5
Format                      : UTF-8
Codec ID                    : S_TEXT/UTF8
Codec ID/Info               : UTF-8 Plain Text
Duration                    : 49 min 48 s
Bit rate                    : 50 b/s
Count of elements           : 593
Stream size                 : 18.5 KiB (0%)
Title                       : English [Full]
Language                    : English
Default                     : No
Forced                      : No

Text #2
ID                          : 6
Format                      : UTF-8
Codec ID                    : S_TEXT/UTF8
Codec ID/Info               : UTF-8 Plain Text
Duration                    : 51 min 47 s
Bit rate                    : 147 b/s
Count of elements           : 763
Stream size                 : 56.0 KiB (0%)
Title                       : Hindi [SDH]
Language                    : Hindi
Default                     : No
Forced                      : No

Text #3
ID                          : 7
Format                      : UTF-8
Codec ID                    : S_TEXT/UTF8
Codec ID/Info               : UTF-8 Plain Text
Duration                    : 51 min 45 s
Bit rate                    : 7 b/s
Count of elements           : 15
Stream size                 : 2.89 KiB (0%)
Title                       : Tamil [Forced]
Language                    : Tamil
Default                     : No
Forced                      : Yes

Text #4
ID                          : 8
Format                      : UTF-8
Codec ID                    : S_TEXT/UTF8
Codec ID/Info               : UTF-8 Plain Text
Duration                    : 51 min 45 s
Bit rate                    : 150 b/s
Count of elements           : 665
Stream size                 : 56.9 KiB (0%)
Title                       : Tamil [Full]
Language                    : Tamil
Default                     : No
Forced                      : No

Text #5
ID                          : 9
Format                      : UTF-8
Codec ID                    : S_TEXT/UTF8
Codec ID/Info               : UTF-8 Plain Text
Duration                    : 51 min 45 s
Bit rate                    : 6 b/s
Count of elements           : 14
Stream size                 : 2.32 KiB (0%)
Title                       : Telugu [Forced]
Language                    : Telugu
Default                     : No
Forced                      : Yes

Text #6
ID                          : 10
Format                      : UTF-8
Codec ID                    : S_TEXT/UTF8
Codec ID/Info               : UTF-8 Plain Text
Duration                    : 51 min 45 s
Bit rate                    : 149 b/s
Count of elements           : 641
Stream size                 : 56.6 KiB (0%)
Title                       : Telugu [Full]
Language                    : Telugu
Default                     : No
Forced                      : No

Menu
00:00:00.000                : en:Amazon Original
00:00:05.000                : en:Disclaimer
00:00:17.000                : en:Munna creates chaos in a marriage ceremony
00:05:20.000                : en:Opening Credits
00:06:16.000                : en:Kaaleen asks the customer to test the gun
00:10:24.000                : en:Munna and gang bashes Deepu Singh
00:15:58.000                : en:Sweety makes fun of Guddu
00:18:34.000                : en:Ramakant takes up a new case
00:21:15.000                : en:Guddu asks Bablu to join for IAS training
00:24:34.000                : en:Guddu feels jealous of Kaaleen's fame
00:27:08.000                : en:Ramakant tells his wife about the new case
00:30:21.000                : en:Parshuram conveys the news to Kaaleen
00:36:07.000                : en:Series of unfortunate events
00:45:22.000                : en:Bablu and Guddu get a call from Kaaleen
00:51:48.000                : en:End Credits










:download:

Quote









File Leeched & Uploaded From




Don't walk as you are king, walk as you don't care who the king is....!!
Never argue with an idiot. They drag you down to their level and then beat you with experience?

Share this topic on FacebookShare this topic on GoogleShare this topic on MySpaceShare this topic on TwitterShare this topic on Yahoo




Don't walk as you are king, walk as you don't care who the king is....!!

Thanks given by:


November 16, 2018, 04:35:51 PM
Reply #1
  • Devoted Member
  • **
  • Thank You: 0
  • Reputation: 7
  • Activity:
    36.4%
  • Country: in
  • Posts: 182
  • Topics: 0
  • Join Date: Sep 2018
  • ShareSpark Member

November 22, 2018, 02:17:53 PM
Reply #2
  • Semi Newbie
  • **
  • Thank You: 0
  • Reputation: 0
  • Activity:
    0.2%
  • Posts: 31
  • Topics: 0
  • Join Date: Jun 2012
  • ShareSpark Member
Links are dead.
Please reupload it again.

January 04, 2019, 01:35:56 PM
Reply #3
  • Semi Newbie
  • **
  • Thank You: 0
  • Reputation: 0
  • Activity:
    2%
  • Country: au
  • Posts: 15
  • Topics: 0
  • Join Date: Jun 2017
  • ShareSpark Member

Tags:
 

Related Topics

  Subject / Started by Replies Last post
4 Replies
1185 Views
Last post January 11, 2019, 09:25:46 AM
by rajesh kumar kharra
0 Replies
509 Views
Last post July 30, 2018, 12:56:31 PM
by ♥ Mann ♥
3 Replies
850 Views
Last post October 09, 2018, 04:01:56 PM
by Pankaj Kumar Gupta
3 Replies
815 Views
Last post October 09, 2018, 11:38:24 AM
by Pankaj Kumar Gupta
0 Replies
755 Views
Last post November 16, 2018, 03:36:08 PM
by Rάήνίјάч1234




Back to top