+ ShareSpark.net »  :::: Bollywood Zone » Indian TV Shows
|- Apharan - 12 Episodes - 1080p WEB-DL AAC - DTOne


TV and Appliances

Apharan - 12 Episodes - 1080p WEB-DL AAC - DTOne

0 Members and 1 Guest are viewing this topic.

December 18, 2018, 12:36:33 PM
  • Global Moderator
  • Legend Member
  • *****
  • Topic Author
  • Thank You: 11841
  • Reputation: 2401
  • Activity:
    100%
  • Country: in
  • Posts: 5637
  • Topics: 4622
  • Join Date: Jan 2014
  • ıllıllı ѕмoĸιng ιѕ good ғor нealтн ıllıllı :)
Apharan - 12 Episodes - 1080p WEB-DL AAC - DTOne



Quote
General
Complete name                            : Episode 2.mp4
Format                                   : MPEG-4
Format profile                           : Base Media
Codec ID                                 : isom (isom/iso2/avc1/mp41)
File size                                : 1.38 GiB
Duration                                 : 24 min 18 s
Overall bit rate                         : 8 120 kb/s
Writing application                      : Lavf58.17.101

Video
ID                                       : 1
Format                                   : AVC
Format/Info                              : Advanced Video Codec
Format profile                           : [email protected]
Format settings                          : CABAC / 4 Ref Frames
Format settings, CABAC                   : Yes
Format settings, RefFrames               : 4 frames
Codec ID                                 : avc1
Codec ID/Info                            : Advanced Video Coding
Duration                                 : 24 min 18 s
Bit rate                                 : 8 000 kb/s
Width                                    : 1 920 pixels
Height                                   : 1 088 pixels
Display aspect ratio                     : 16:9
Frame rate mode                          : Constant
Frame rate                               : 25.000 FPS
Color space                              : YUV
Chroma subsampling                       : 4:2:0
Bit depth                                : 8 bits
Scan type                                : Progressive
Bits/(Pixel*Frame)                       : 0.153
Stream size                              : 1.36 GiB (98%)
Writing library                          : x264 core 138

Audio
ID                                       : 2
Format                                   : AAC
Format/Info                              : Advanced Audio Codec
Format profile                           : LC
Codec ID                                 : mp4a-40-2
Duration                                 : 24 min 18 s
Bit rate mode                            : Constant
Bit rate                                 : 128 kb/s
Channel(s)                               : 2 channels
Channel positions                        : Front: L R
Sampling rate                            : 48.0 kHz
Frame rate                               : 46.875 FPS (1024 SPF)
Compression mode                         : Lossy
Stream size                              : 22.3 MiB (2%)
Default                                  : Yes
Alternate group                          : 1






:download:

Quote

File Leeched & Uploaded From




Don't walk as you are king, walk as you don't care who the king is....!!
Never argue with an idiot. They drag you down to their level and then beat you with experience?

Share this topic on FacebookShare this topic on GoogleShare this topic on MySpaceShare this topic on TwitterShare this topic on Yahoo

« Last Edit: December 26, 2018, 02:49:12 PM by Rάήνίјάч1234 »



Don't walk as you are king, walk as you don't care who the king is....!!

Thanks given by:


December 18, 2018, 12:41:40 PM
Reply #1
  • Semi Newbie
  • **
  • Thank You: 0
  • Reputation: 0
  • Activity:
    0.8%
  • Country: in
  • Posts: 11
  • Topics: 0
  • Join Date: Aug 2014
  • ShareSpark Member
bhai download option nahi aa raha

December 18, 2018, 01:03:18 PM
Reply #2
  • Global Moderator
  • Legend Member
  • *****
  • Topic Author
  • Thank You: 11841
  • Reputation: 2401
  • Activity:
    100%
  • Country: in
  • Posts: 5637
  • Topics: 4622
  • Join Date: Jan 2014
  • ıllıllı ѕмoĸιng ιѕ good ғor нealтн ıllıllı :)
bhai download option nahi aa raha
bhai link open karo
jis ep ko karna hai uspe right click karo download option hoga

Don't walk as you are king, walk as you don't care who the king is....!!

December 18, 2018, 01:05:17 PM
Reply #3
  • Begginer
  • **
  • Thank You: 0
  • Reputation: 1
  • Activity:
    3%
  • Posts: 90
  • Topics: 0
  • Join Date: Apr 2013
  • ShareSpark Member

December 18, 2018, 01:07:41 PM
Reply #4
  • Semi Newbie
  • **
  • Thank You: 0
  • Reputation: 0
  • Activity:
    0.8%
  • Country: in
  • Posts: 11
  • Topics: 0
  • Join Date: Aug 2014
  • ShareSpark Member

December 18, 2018, 01:17:55 PM
Reply #5
  • Global Moderator
  • Legend Member
  • *****
  • Topic Author
  • Thank You: 11841
  • Reputation: 2401
  • Activity:
    100%
  • Country: in
  • Posts: 5637
  • Topics: 4622
  • Join Date: Jan 2014
  • ıllıllı ѕмoĸιng ιѕ good ғor нealтн ıllıllı :)
bhai link nahi hai
:lol1::lol1::lol1: :lol::lol::lol:
Maine Link Dale Bina Post Kar Diya Tha
Now Added, Enjoyyy

Don't walk as you are king, walk as you don't care who the king is....!!

December 26, 2018, 09:54:26 AM
Reply #6
  • Semi Newbie
  • **
  • Thank You: 0
  • Reputation: 0
  • Activity:
    1.6%
  • Posts: 23
  • Topics: 0
  • Join Date: Dec 2012
  • ShareSpark Member
There is no link/files in the google drive folder. Please check.

December 26, 2018, 02:59:50 PM
Reply #7
  • Global Moderator
  • Legend Member
  • *****
  • Topic Author
  • Thank You: 11841
  • Reputation: 2401
  • Activity:
    100%
  • Country: in
  • Posts: 5637
  • Topics: 4622
  • Join Date: Jan 2014
  • ıllıllı ѕмoĸιng ιѕ good ғor нealтн ıllıllı :)
There is no link/files in the google drive folder. Please check.
fixed

Don't walk as you are king, walk as you don't care who the king is....!!

December 26, 2018, 05:30:27 PM
Reply #8
  • Semi Newbie
  • **
  • Thank You: 0
  • Reputation: 0
  • Activity:
    1.6%
  • Posts: 23
  • Topics: 0
  • Join Date: Dec 2012
  • ShareSpark Member

December 31, 2018, 12:04:03 AM
Reply #9
  • Elite Member
  • ***
  • Thank You: 0
  • Reputation: 7
  • Activity:
    8.8%
  • Country: au
  • Posts: 410
  • Topics: 0
  • Join Date: Oct 2017
  • ShareSpark Member

Tags:
 

Related Topics

  Subject / Started by Replies Last post
0 Replies
730 Views
Last post October 26, 2017, 02:03:43 PM
by ♥[--K4Krish--]♥
2 Replies
1132 Views
Last post July 14, 2018, 04:13:52 PM
by muntarin
0 Replies
141 Views
Last post November 30, 2018, 07:28:14 AM
by -Ð@Rk.ÐèVi£-
0 Replies
417 Views
Last post November 30, 2018, 07:39:07 AM
by -Ð@Rk.ÐèVi£-
1 Replies
1392 Views
Last post December 21, 2018, 11:32:44 AM
by nopp2




Back to top